<?xml version="1.0" standalone="no"?>
<!DOCTYPE svg PUBLIC "-//W3C//DTD SVG 1.1//EN" "http://www.w3.org/Graphics/SVG/1.1/DTD/svg11.dtd" >
<svg xmlns="http://www.w3.org/2000/svg">
<metadata>Generated by IcoMoon</metadata>
<defs>
<font id="icomoon" horiz-adv-x="1024">
<font-face units-per-em="1024" ascent="960" descent="-64" />
<missing-glyph horiz-adv-x="1024" />
<glyph unicode="&#x20;" horiz-adv-x="512" d="" />
<glyph unicode="&#xe900;" glyph-name="metform_sign" d="M896 823.466h-768c-64 0-119.467-55.467-119.467-119.467v-512c0-64 51.2-119.467 119.467-119.467h768c64 0 119.467 51.2 119.467 119.467v512c0 64-51.2 119.467-119.467 119.467zM947.2 192c0-29.867-25.6-51.2-51.2-51.2h-768c-29.867 0-51.2 25.6-51.2 51.2v512c0 29.867 25.6 51.2 51.2 51.2h768c29.867 0 51.2-25.6 51.2-51.2v-512zM358.4 358.4l-106.667 264.533h-81.067v-354.133h64v238.933l98.133-238.933h55.467l98.133 238.933v-238.933h64v354.133h-81.067l-106.666-264.533h-4.267zM627.2 273.067h64v145.067h136.533v55.467h-136.533v93.866h162.133v55.467h-226.133v-349.866z" />
<glyph unicode="&#xe901;" glyph-name="metform_favicon" d="M294.4 64l-247.467 320 247.467-149.333 678.4 328.533-192-17.067v238.933c0 51.2-38.4 89.6-89.6 89.6h-558.933c-51.2 0-89.6-38.4-89.6-89.6v-678.4c0-51.2 38.4-89.6 89.6-89.6h558.933c51.2 0 89.6 38.4 89.6 89.6v213.333l192 230.4-678.4-490.667v4.267zM328.533 768h302.933v-42.667h-302.933v42.667zM328.533 622.933h302.933v-42.667h-302.933v42.667zM328.533 473.6h209.067v-42.667h-209.067v42.667zM234.667 785.067c21.333 0 38.4-17.067 38.4-38.4s-17.067-38.4-38.4-38.4c-21.333 0-38.4 17.067-38.4 38.4s17.067 38.4 38.4 38.4zM234.667 640c21.333 0 38.4-17.067 38.4-38.4s-17.067-38.4-38.4-38.4c-21.333 0-38.4 17.067-38.4 38.4s17.067 38.4 38.4 38.4zM234.667 490.667c21.333 0 38.4-17.067 38.4-38.4s-17.067-38.4-38.4-38.4c-21.333 0-38.4 17.067-38.4 38.4s17.067 38.4 38.4 38.4z" />
<glyph unicode="&#xe902;" glyph-name="metform_text_editor" d="M280.418-27.766h-166.991c-40.566 0-74.043 33.083-74.043 74.043v839.68c0 40.96 33.083 74.043 74.043 74.043h167.385v-68.923h-167.385c-2.757 0-4.726-2.363-4.726-4.726v-840.074c0-2.757 2.363-4.726 4.726-4.726h167.385v-68.923l-0.394-0.394zM889.305 466.117h-68.923v419.84c0 2.757-2.363 4.726-4.726 4.726h-167.385v69.317h167.385c40.566 0 74.043-33.083 74.043-74.043v-420.234l-0.394 0.394zM648.271 753.231h-367.853c-18.905 0-34.658 15.36-34.658 34.658v137.452c0 18.905 15.36 34.658 34.658 34.658h367.459c18.905 0 34.658-15.36 34.658-34.658v-137.846c0-18.905-15.36-34.658-34.658-34.658l0.394 0.394zM315.077 822.154h298.536v68.923h-298.536v-68.923zM487.188 247.926h-229.613v68.923h229.613v-68.923zM671.114 477.538h-413.539v68.923h413.539v-68.923zM464.345 41.157h-91.765v-68.923h91.765v68.923zM708.529-27.766h-163.84v163.446l287.114 286.72 25.206-24.418 136.271-135.877-19.298-24.812-265.058-265.452-0.394 0.394zM613.612 41.157h66.166l218.191 218.191-66.166 66.166-218.191-218.191v-66.166z" />
<glyph unicode="&#xe903;" glyph-name="metform_password" d="M812.883 367.269c15.36 5.514 32.327-1.985 38.235-17.345 5.896-15.36-1.993-32.288-17.349-38.195-58.281-22.055-133.506-131.127-157.538-171.307-5.51-9.055-14.954-14.572-25.19-14.576l-0.386 0.386c0 0-0.796 0-1.575 0-11.028 0.394-20.504 7.077-25.234 16.924-18.511 39.778-34.269 44.497-34.269 44.497-16.136 0.008-27.53 13.009-27.538 29.538 0 16.542 14.958 29.538 31.5 29.538 8.283 0 32.291-3.151 58.27-35.423 34.658 50.806 98.068 131.935 161.075 155.963zM711.27 552.771c168.562 0 306.034-137.062 306.038-305.231 0-168.172-137.472-305.231-306.038-305.231-168.558 0.008-306.003 137.062-306.003 305.231 0.004 168.16 137.444 305.219 306.003 305.231zM711.27 493.694c-136.263-0.012-246.922-110.289-246.926-246.154 0-135.873 110.663-246.146 246.926-246.154 136.271 0 246.961 110.277 246.961 246.154-0.004 135.873-110.694 246.154-246.961 246.154zM849.538 920.615c92.55-0.007 167.771-75.229 167.771-167.385v-189.846c-0.008-16.14-13.399-29.538-29.538-29.538-16.144 0-29.531 13.395-29.538 29.538v189.846c0 59.861-48.833 108.301-108.694 108.308h-642.384c-59.861-0.005-108.692-48.446-108.692-108.308v-182.346c0-59.861 48.832-108.305 108.692-108.308h132.346c16.144 0 29.536-13.395 29.538-29.538 0-16.144-13.393-29.535-29.538-29.538h-132.346c-92.55 0.004-167.769 75.229-167.769 167.385v182.346c0 92.157 75.219 167.379 167.769 167.385h642.384zM312.731 681.962l59.462 21.654 10.231-30.346-61.846-16.539 40.192-48.846-27.577-18.5-36.231 52.769-35.846-51.193-27.769 18 41.154 49.731-60.654 16.538 10.269 29.961 60.231-21.654-2.731 63h34.231l-3.115-64.577zM543.114 681.962l59.463 21.654 10.232-30.346-61.81-16.539 40.157-48.846-27.577-18.5-36.234 52.769-35.805-51.193-27.77 18 41.153 49.731-60.652 16.538 10.228 29.961 60.27-21.654-2.769 63h34.269l-3.155-64.577zM773.923 681.962l59.463 21.654 10.228-30.346-61.846-16.539 40.192-48.846-27.577-18.5-36.23 52.769-35.848-51.193-27.766 18 41.153 49.731-60.656 16.538 10.272 29.961 60.231-21.654-2.729 63h34.269l-3.155-64.577zM233.346 608.961l-0.192-0.269v0.384l0.192-0.115zM463.77 608.961l-0.193-0.269v0.384l0.193-0.115zM694.54 608.961l-0.193-0.269v0.384l0.193-0.115z" />
<glyph unicode="&#xe904;" glyph-name="metform_range_slider" d="M777.846 566.154c54.78 0 101.014-37.821 114.231-88.615h43.307c16.148 0 29.538-13.391 29.538-29.538s-13.391-29.538-29.538-29.538h-43.307c-13.217-50.794-59.451-88.615-114.231-88.615s-101.014 37.821-114.231 88.615h-322.923c-13.216-50.794-59.45-88.615-114.231-88.615s-101.015 37.821-114.231 88.615h-43.308c-16.148 0-29.538 13.391-29.538 29.538s13.391 29.538 29.538 29.538h43.308c13.216 50.794 59.45 88.615 114.231 88.615s101.015-37.821 114.231-88.615h322.923c13.217 50.794 59.451 88.615 114.231 88.615zM226.462 507.077c-32.689 0-59.077-26.388-59.077-59.077s26.388-59.077 59.077-59.077c32.689 0 59.077 26.388 59.077 59.077s-26.388 59.077-59.077 59.077zM777.846 507.077c-32.689 0-59.077-26.388-59.077-59.077s26.388-59.077 59.077-59.077c32.689 0 59.077 26.388 59.077 59.077s-26.388 59.077-59.077 59.077z" />
<glyph unicode="&#xe905;" glyph-name="metform_select" d="M495.458 8.074c-251.274 0-456.074 204.8-456.074 456.468s204.8 456.074 456.074 456.074c251.274 0 456.074-204.8 456.074-456.074s-204.8-456.074-456.074-456.074v-0.394zM495.458 861.538c-218.978 0-396.997-178.018-396.997-396.997s178.018-396.997 396.997-396.997c218.978 0 396.997 178.018 396.997 396.997s-178.018 396.997-396.997 396.997zM431.655 307.003c-7.877 0-15.36 3.151-20.874 8.665l-106.732 106.732c-11.422 11.422-11.422 30.326 0 41.748s30.326 11.422 41.748 0l84.677-84.677 213.858 233.156c11.028 12.209 29.538 12.997 41.748 1.969s12.997-29.538 1.969-41.748l-234.732-255.999c-5.514-5.908-12.997-9.452-21.268-9.452h-0.788l0.394-0.394z" />
<glyph unicode="&#xe906;" glyph-name="metform_date" d="M406.843 157.342c-16.148 0-29.538 13.391-29.538 29.538v183.926h-12.997c-16.148 0-29.538 13.391-29.538 29.538s13.391 29.538 29.538 29.538h42.535c16.148 0 29.538-13.391 29.538-29.538v-213.465c0-16.148-13.391-29.538-29.538-29.538zM577.378 157.342c-2.757 0-5.514 0-8.665 1.182-15.754 4.726-24.418 21.268-19.692 36.628l52.775 175.262h-66.954c-16.148 0-29.538 13.391-29.538 29.538s13.391 29.538 29.538 29.538h106.732c9.452 0 18.117-4.332 23.631-11.815s7.089-17.329 4.726-25.994l-63.803-213.465c-3.938-12.603-15.754-20.874-28.357-20.874h-0.394zM684.505 691.003c-16.148 0-29.538 13.391-29.538 29.538v170.535c0 16.148 13.391 29.538 29.538 29.538s29.538-13.391 29.538-29.538v-170.535c0-16.148-13.391-29.538-29.538-29.538zM300.505 691.003c-16.148 0-29.538 13.391-29.538 29.538v170.535c0 16.148 13.391 29.538 29.538 29.538s29.538-13.391 29.538-29.538v-170.535c0-16.148-13.391-29.538-29.538-29.538zM790.843 8.074h-597.071c-63.409 0-115.003 51.594-115.003 115.003v597.463c0 63.409 51.594 115.003 115.003 115.003h597.465c63.409 0 115.003-51.594 115.003-115.003v-597.463c0-63.409-51.594-115.003-115.003-115.003h-0.394zM193.772 776.073c-30.72 0-55.926-25.206-55.926-55.926v-597.463c0-30.72 25.206-55.926 55.926-55.926h597.465c30.72 0 55.926 24.812 55.926 55.926v597.857c0 30.72-25.206 55.926-55.926 55.926l-597.465-0.394zM876.308 520.074h-768c-16.148 0-29.538 13.391-29.538 29.538s13.391 29.537 29.538 29.537h768c16.148 0 29.538-13.389 29.538-29.537s-13.391-29.538-29.538-29.538z" />
<glyph unicode="&#xe907;" glyph-name="metform_message" d="M210.313 8.074c-18.511 0-37.022 1.575-55.138 5.12-10.24 1.969-18.905 9.058-22.449 18.905s-1.575 20.874 4.726 28.751c20.086 24.812 34.265 55.138 40.172 87.040 2.757 14.966-9.058 29.145-14.178 34.658-80.345 81.526-124.455 188.258-124.455 300.505 0.394 241.034 205.194 437.563 456.468 437.563s456.074-196.529 456.074-437.563c0-241.034-204.8-437.563-456.074-437.563h-0.788c-29.145 0-58.289 2.757-87.434 8.271-12.209 2.363-23.237 4.726-26.782 4.332-2.363-0.788-13.785-6.695-25.994-13.391-44.505-23.631-94.523-36.234-144.542-36.234l0.394-0.394zM495.458 861.538c-218.979 0-396.997-169.748-396.997-378.486 0-96.492 38.203-188.652 107.52-259.151 24.812-25.206 35.84-57.108 29.932-87.040-4.726-24.418-12.603-48.049-24.025-69.711 39.778 0 79.163 10.24 115.003 29.145 22.843 12.209 33.477 17.723 45.292 19.692 11.815 1.575 23.237 0 46.080-4.726 25.206-4.726 51.2-7.089 76.406-7.089h0.394c218.978 0 396.997 169.748 396.997 378.486s-177.625 378.88-396.603 378.88zM666.388 425.157c-21.662 0-39.385 17.723-39.385 39.385s17.329 39.385 39.385 39.385c21.662 0 39.385-17.723 39.385-39.385s-17.723-39.385-39.385-39.385zM495.852 425.157c-21.662 0-39.385 17.723-39.385 39.385s17.329 39.385 39.385 39.385c21.662 0 39.385-17.723 39.385-39.385s-17.723-39.385-39.385-39.385zM325.317 425.157c-21.662 0-39.385 17.723-39.385 39.385s17.329 39.385 39.385 39.385c21.662 0 39.385-17.723 39.385-39.385s-17.723-39.385-39.385-39.385z" />
<glyph unicode="&#xe908;" glyph-name="metform_summay" d="M876.308 779.62h-256c-16.148 0-29.538 13.391-29.538 29.538s13.391 29.538 29.538 29.538h256c16.148 0 29.538-13.391 29.538-29.538s-13.391-29.538-29.538-29.538zM876.308 523.618h-256c-16.148 0-29.538 13.391-29.538 29.538 0 16.149 13.391 29.54 29.538 29.54h256c16.148 0 29.538-13.391 29.538-29.54 0-16.148-13.391-29.538-29.538-29.538zM876.308 267.618h-768c-16.148 0-29.538 13.391-29.538 29.538s13.391 29.538 29.538 29.538h768c16.148 0 29.538-13.391 29.538-29.538s-13.391-29.538-29.538-29.538zM876.308 11.618h-768c-16.148 0-29.538 13.391-29.538 29.538s13.391 29.538 29.538 29.538h768c16.148 0 29.538-13.391 29.538-29.538s-13.391-29.538-29.538-29.538zM364.308 480.689h-170.535c-63.409 0-115.003 51.594-115.003 115.003v170.535c0 63.409 51.594 115.003 115.003 115.003h170.535c63.409 0 115.003-51.594 115.003-115.003v-170.535c0-63.409-51.594-115.003-115.003-115.003zM193.772 822.154c-30.72 0-55.926-25.206-55.926-55.926v-170.535c0-30.72 25.206-55.926 55.926-55.926h170.535c30.72 0 55.926 25.206 55.926 55.926v170.535c0 30.72-25.206 55.926-55.926 55.926h-170.535z" />
<glyph unicode="&#xe909;" glyph-name="metform_next_step" d="M541.538 192c7.483 0 14.966 2.757 20.874 8.665l256 256c11.422 11.422 11.422 30.326 0 41.748l-256 256c-11.422 11.422-30.326 11.422-41.748 0s-11.422-30.326 0-41.748l235.126-235.126-235.126-235.126c-11.422-11.422-11.422-30.326 0-41.748 5.908-5.908 13.391-8.665 20.874-8.665zM243.003 192c7.483 0 14.966 2.757 20.874 8.665l256 256c5.514 5.514 8.665 12.997 8.665 20.874s-3.151 15.36-8.665 20.874l-256 256c-11.422 11.422-30.326 11.422-41.748 0s-11.422-30.326 0-41.748l235.126-235.126-235.126-235.126c-11.422-11.422-11.422-30.326 0-41.748 5.908-5.908 13.391-8.665 20.874-8.665z" />
<glyph unicode="&#xe90a;" glyph-name="metform_previous_step" d="M482.462 192c-7.483 0-14.966 2.757-20.874 8.665l-256 256c-11.422 11.422-11.422 30.326 0 41.748l256 256c11.422 11.422 30.326 11.422 41.748 0s11.422-30.326 0-41.748l-235.126-235.126 235.126-235.126c11.422-11.422 11.422-30.326 0-41.748-5.908-5.908-13.391-8.665-20.874-8.665zM780.997 192c-7.483 0-14.966 2.757-20.874 8.665l-256 256c-5.514 5.514-8.665 12.997-8.665 20.874s3.151 15.36 8.665 20.874l256 256c11.422 11.422 30.326 11.422 41.748 0s11.422-30.326 0-41.748l-235.126-235.126 235.126-235.126c11.422-11.422 11.422-30.326 0-41.748-5.908-5.908-13.391-8.665-20.874-8.665z" />
<glyph unicode="&#xe90b;" glyph-name="metform_time" d="M495.458 8.074c-251.274 0-456.074 204.8-456.074 456.468s204.8 456.074 456.074 456.074c251.274 0 456.074-204.8 456.074-456.074s-204.8-456.074-456.074-456.074v-0.394zM495.458 861.538c-218.978 0-396.997-178.018-396.997-396.997s178.018-396.997 396.997-396.997c218.978 0 396.997 178.018 396.997 396.997s-178.018 396.997-396.997 396.997zM580.923 349.538c-7.483 0-14.966 2.757-20.874 8.665l-85.465 85.465c-5.514 5.514-8.665 12.997-8.665 20.874v170.535c0 16.148 13.391 29.538 29.538 29.538s29.538-13.391 29.538-29.538v-158.326l76.8-76.8c11.422-11.422 11.422-30.326 0-41.748-5.908-5.908-13.391-8.665-20.874-8.665z" />
<glyph unicode="&#xe90c;" glyph-name="metform_button" d="M896 695.466h-768c-64 0-119.467-51.2-119.467-119.467v-256c0-64 51.2-119.467 119.467-119.467h768c64 0 119.467 51.2 119.467 119.467v256c0 64-51.2 119.467-119.467 119.467zM947.2 320c0-29.867-25.6-51.2-51.2-51.2h-768c-29.867 0-51.2 25.6-51.2 51.2v256c0 29.867 25.6 51.2 51.2 51.2h768c29.867 0 51.2-25.6 51.2-51.2v-256zM682.667 482.133h-341.333c-17.067 0-34.133-12.8-34.133-34.133s12.8-34.133 34.133-34.133h341.333c17.067 0 34.133 12.8 34.133 34.133s-12.8 34.133-34.133 34.133z" />
<glyph unicode="&#xe90d;" glyph-name="metform_url" d="M419.84-57.305c-67.348 0-134.302 25.6-185.502 76.8-102.4 102.4-102.4 268.603 0 371.003l21.268 21.268c11.422 11.422 30.326 11.422 41.748 0s11.422-30.326 0-41.748l-21.268-21.268c-79.163-79.163-79.163-208.345 0-287.508s208.345-79.163 287.508 0l131.545 131.545c38.203 38.203 59.471 89.403 59.471 143.754s-21.268 105.157-59.471 143.754c-79.163 79.163-208.345 79.163-287.508 0l-9.452-9.452c-11.422-11.422-30.326-11.422-41.748 0s-11.422 30.326 0 41.748l9.452 9.452c102.4 102.401 268.603 102.401 371.003 0 49.625-49.625 76.8-115.397 76.8-185.502s-27.175-135.877-76.8-185.502l-131.545-131.545c-51.2-51.2-118.154-76.8-185.502-76.8zM465.526 264.468c-70.105 0-135.877 27.175-185.502 76.8-102.006 102.006-102.006 268.603 0 371.003l131.545 131.545c102.4 102.4 268.603 102.4 371.003 0s102.4-268.603 0-371.003l-21.268-21.268c-11.422-11.422-30.326-11.422-41.748 0s-11.422 30.326 0 41.748l21.268 21.268c79.163 79.163 79.163 208.345 0 287.508s-208.345 79.163-287.508 0l-131.545-131.545c-79.163-79.163-79.163-208.345 0-287.508 38.597-38.203 89.403-59.471 143.754-59.471s105.157 21.268 143.754 59.471l9.452 9.452c11.422 11.422 30.326 11.422 41.748 0s11.422-30.326 0-41.748l-9.452-9.452c-49.625-49.625-115.397-76.8-185.502-76.8z" />
<glyph unicode="&#xe90e;" glyph-name="metform_toggle" d="M344.615 290.462c-92.16 0-167.385 75.225-167.385 167.385s75.225 167.385 167.385 167.385c92.16 0 167.385-75.225 167.385-167.385s-75.225-167.385-167.385-167.385zM344.615 566.154c-59.865 0-108.308-48.443-108.308-108.308s48.443-108.308 108.308-108.308c59.865 0 108.308 48.443 108.308 108.308s-48.443 108.308-108.308 108.308zM712.074 152.615h-367.458c-168.172 0-305.231 137.058-305.231 305.231s137.058 305.231 305.231 305.231h367.458c168.172 0 305.231-137.058 305.231-305.231s-137.058-305.231-305.231-305.231zM344.615 704c-135.877 0-246.154-110.277-246.154-246.154s110.277-246.154 246.154-246.154h367.458c135.877 0 246.154 110.277 246.154 246.154s-110.277 246.154-246.154 246.154h-367.458z" />
<glyph unicode="&#xe90f;" glyph-name="metform_toggle_switch" d="M344.615 290.462c-92.16 0-167.385 75.225-167.385 167.385s75.225 167.385 167.385 167.385c92.16 0 167.385-75.225 167.385-167.385s-75.225-167.385-167.385-167.385zM344.615 566.154c-59.865 0-108.308-48.443-108.308-108.308s48.443-108.308 108.308-108.308c59.865 0 108.308 48.443 108.308 108.308s-48.443 108.308-108.308 108.308zM712.074 152.615h-367.458c-168.172 0-305.231 137.058-305.231 305.231s137.058 305.231 305.231 305.231h367.458c168.172 0 305.231-137.058 305.231-305.231s-137.058-305.231-305.231-305.231zM344.615 704c-135.877 0-246.154-110.277-246.154-246.154s110.277-246.154 246.154-246.154h367.458c135.877 0 246.154 110.277 246.154 246.154s-110.277 246.154-246.154 246.154h-367.458zM719.163 353.871c-6.302 0-12.603 1.969-17.723 5.908l-72.862 54.745c-12.997 9.846-15.754 28.357-5.908 41.354s28.357 15.754 41.354 5.908l47.655-35.84 82.314 126.818c8.665 13.785 27.175 17.723 40.96 8.665s17.723-27.175 8.665-40.96l-99.643-153.206c-4.332-6.695-11.422-11.422-19.692-12.997-1.575 0-3.545-0.394-5.12-0.394z" />
<glyph unicode="&#xe910;" glyph-name="metform_text" d="M603.372 173.489h-152.418c-16.148 0-29.538 13.391-29.538 29.538s13.391 29.538 29.538 29.538h46.080v400.149c-48.837-1.182-95.705-7.877-139.816-19.692-27.963-7.483-34.264-12.997-29.538-49.626 1.969-16.148-9.453-31.114-25.6-33.083s-31.114 9.452-33.083 25.6c-8.271 63.41 14.178 98.463 72.468 114.217 111.853 30.326 239.459 29.145 368.247-2.757 59.077-14.572 81.92-48.837 74.043-111.46-1.969-16.148-17.329-27.569-33.083-25.6-16.148 1.969-27.569 16.935-25.6 33.083 4.332 35.053-1.182 39.78-29.538 46.869-47.262 11.815-94.129 18.905-140.209 21.662v-399.361h46.868c16.148 0 29.538-13.391 29.538-29.538s-13.391-29.538-29.538-29.538h1.182zM528.542-57.305c-269.785 0-489.157 219.372-489.157 488.763s219.372 489.157 489.157 489.157c269.785 0 489.157-219.372 489.157-489.157s-219.372-489.157-489.157-489.157v0.394zM528.542 861.538c-237.095 0-430.080-192.985-430.080-430.080s192.985-430.080 430.080-430.080c237.095 0 430.080 192.985 430.080 430.080s-192.985 430.080-430.080 430.080z" />
<glyph unicode="&#xe911;" glyph-name="metform_text_area" d="M804.234 34.462h-551.385c-16.148 0-29.538 13.391-29.538 29.538s13.391 29.538 29.538 29.538h551.385c16.148 0 29.538-13.391 29.538-29.538s-13.391-29.538-29.538-29.538zM896 126.228c-16.148 0-29.538 13.391-29.538 29.538v551.384c0 16.148 13.391 29.538 29.538 29.538s29.538-13.391 29.538-29.538v-551.384c0-16.148-13.391-29.538-29.538-29.538zM160.689 126.228c-16.148 0-29.538 13.391-29.538 29.538v551.384c0 16.148 13.391 29.538 29.538 29.538s29.538-13.391 29.538-29.538v-551.384c0-16.148-13.391-29.538-29.538-29.538zM804.234 769.772h-551.385c-16.148 0-29.538 13.391-29.538 29.538s13.391 29.538 29.538 29.538h551.385c16.148 0 29.538-13.391 29.538-29.538s-13.391-29.538-29.538-29.538zM594.708 218.388h-136.271c-16.148 0-29.538 13.391-29.538 29.538s13.391 29.538 29.538 29.538h38.597v307.593c-44.505-1.575-105.944-6.302-120.517-24.418-1.575-1.969-7.089-8.665-2.757-31.902 3.151-16.148-7.483-31.508-23.631-34.658s-31.508 7.483-34.658 23.631c-6.302 33.871-1.575 59.864 14.966 79.95 29.932 37.022 91.766 44.898 195.347 46.868 0 0 0.394 0 0.788 0 0 0 0.394 0 0.788 0 107.52-2.363 163.84-9.846 193.378-45.686 16.542-20.086 22.055-46.473 16.542-80.344-2.757-16.148-17.723-27.175-33.871-24.418s-27.175 17.723-24.418 33.871c3.938 24.025-1.969 30.72-3.545 33.083-13.785 16.935-65.378 21.661-119.335 23.63v-307.593h38.597c16.148 0 29.538-13.391 29.538-29.538s-13.391-29.538-29.538-29.538v0.394zM942.080 677.612h-91.766c-41.748 0-75.618 33.871-75.618 75.618v91.766c0 41.748 33.871 75.618 75.618 75.618h91.766c41.748 0 75.618-33.871 75.618-75.618v-91.766c0-41.748-33.871-75.618-75.618-75.618zM850.314 861.538c-9.058 0-16.542-7.483-16.542-16.542v-91.766c0-9.058 7.483-16.542 16.542-16.542h91.766c9.058 0 16.542 7.483 16.542 16.542v91.766c0 9.058-7.483 16.542-16.542 16.542h-91.766zM206.769 677.612h-91.766c-41.748 0-75.618 33.871-75.618 75.618v91.766c0 41.748 33.871 75.618 75.618 75.618h91.766c41.748 0 75.618-33.871 75.618-75.618v-91.766c0-41.748-33.871-75.618-75.618-75.618zM115.003 861.538c-9.058 0-16.542-7.483-16.542-16.542v-91.766c0-9.058 7.483-16.542 16.542-16.542h91.766c9.058 0 16.542 7.483 16.542 16.542v91.766c0 9.058-7.483 16.542-16.542 16.542h-91.766zM942.080-57.305h-91.766c-41.748 0-75.618 33.871-75.618 75.618v91.766c0 41.748 33.871 75.618 75.618 75.618h91.766c41.748 0 75.618-33.871 75.618-75.618v-91.766c0-41.748-33.871-75.618-75.618-75.618zM850.314 126.622c-9.058 0-16.542-7.483-16.542-16.542v-91.766c0-9.058 7.483-16.542 16.542-16.542h91.766c9.058 0 16.542 7.483 16.542 16.542v91.766c0 9.058-7.483 16.542-16.542 16.542h-91.766zM206.769-57.305h-91.766c-41.748 0-75.618 33.871-75.618 75.618v91.766c0 41.748 33.871 75.618 75.618 75.618h91.766c41.748 0 75.618-33.871 75.618-75.618v-91.766c0-41.748-33.871-75.618-75.618-75.618zM115.003 126.622c-9.058 0-16.542-7.483-16.542-16.542v-91.766c0-9.058 7.483-16.542 16.542-16.542h91.766c9.058 0 16.542 7.483 16.542 16.542v91.766c0 9.058-7.483 16.542-16.542 16.542h-91.766z" />
<glyph unicode="&#xe912;" glyph-name="metform_telephone" d="M529.329 126.622c-66.954 0-121.305 54.351-121.305 121.305s54.351 121.305 121.305 121.305c66.954 0 121.305-54.351 121.305-121.305s-54.351-121.305-121.305-121.305zM529.329 310.548c-34.265 0-62.228-27.963-62.228-62.228s27.963-62.228 62.228-62.228c34.265 0 62.228 27.963 62.228 62.228s-27.963 62.228-62.228 62.228zM988.554 540.16c-3.545 0-7.483 0.788-11.028 1.969l-171.717 67.742c-46.868 18.511-76.8 62.622-76.8 113.034v117.76c-126.818 28.357-273.329 28.357-400.542 0v-117.76c0-50.018-30.326-94.523-76.8-113.034l-171.717-67.742c-9.058-3.545-19.298-2.363-27.569 3.151s-12.997 14.572-12.997 24.418v89.797c0 72.468 36.628 137.058 95.311 168.96 55.138 29.932 107.914 51.594 156.751 63.803 148.48 37.809 325.711 37.809 473.797 0 48.837-12.209 101.218-33.871 156.751-63.803 58.683-31.902 95.311-96.886 95.311-168.96v-89.797c0-9.846-4.726-18.905-12.997-24.418-5.12-3.545-10.634-5.12-16.542-5.12h0.788zM269.785 824.517c-33.477-11.422-68.923-27.569-106.338-47.655-39.778-21.662-64.591-66.56-64.591-116.972v-46.474l131.151 51.988c24.025 9.452 39.385 32.295 39.385 57.895v101.218h0.394zM788.48 824.517v-101.218c0-25.6 15.36-48.443 39.385-57.895l131.151-51.988v46.474c0 50.806-24.812 95.705-64.591 116.972-37.022 20.086-72.468 36.234-106.338 47.655h0.394zM896.788-11.225h-735.311c-41.748 0-75.618 33.871-75.618 75.618v216.615c0 47.655 27.963 90.978 71.286 110.671l185.108 84.283 12.603 63.015c7.089 35.054 38.203 60.654 74.043 60.654h200.468c35.84 0 66.954-25.6 74.043-60.654l12.603-63.015 185.108-84.283c43.323-19.692 71.286-63.015 71.286-110.671v-216.615c0-41.748-33.871-75.618-75.618-75.618zM428.898 540.16c-7.877 0-14.572-5.514-16.148-12.997l-15.754-77.982c-1.969-9.452-8.271-17.329-16.542-21.268l-198.892-90.585c-22.055-10.24-36.628-32.295-36.628-56.714v-216.615c0-9.058 7.483-16.542 16.542-16.542h735.311c9.058 0 16.542 7.483 16.542 16.542v216.615c0 24.418-14.178 46.868-36.628 56.714l-198.892 90.585c-8.665 3.938-14.966 11.815-16.542 21.268l-15.754 77.982c-1.575 7.483-8.271 12.997-16.148 12.997h-200.468z" />
<glyph unicode="&#xe913;" glyph-name="metform_simple_repeater" d="M367.853-11.646c-6.695 0-13.391 2.363-18.905 6.695l-137.846 115.003c-9.452 7.877-12.997 20.874-9.058 32.689s15.36 19.692 27.963 19.692h436.381c161.083 0 292.234 131.151 292.234 292.234 0 60.258-18.117 117.761-52.382 166.992-9.452 13.391-5.908 31.902 7.483 40.96 13.391 9.452 31.902 5.908 40.96-7.483 41.354-59.077 63.015-128.395 63.015-200.862 0-193.772-157.538-351.311-351.311-351.311h-354.461l75.225-62.622c12.602-10.24 14.178-29.145 3.938-41.748-5.908-7.089-14.178-10.634-22.843-10.634l-0.394 0.394zM126.818 241.203c-9.452 0-18.511 4.332-24.418 12.603-41.354 59.077-63.015 128.394-63.015 200.862 0.394 193.38 157.932 350.918 351.705 350.918h354.855l-75.225 62.622c-12.603 10.634-14.178 29.145-3.938 41.748 10.634 12.603 29.145 14.178 41.748 3.938l137.846-115.003c9.452-7.877 12.997-20.874 8.665-32.689s-15.36-19.298-27.963-19.298h-436.382c-161.083 0-292.234-131.151-292.234-292.235 0-60.258 18.117-117.76 52.382-166.991 9.452-13.391 5.908-31.902-7.483-40.96-5.12-3.545-11.028-5.12-16.935-5.12l0.394-0.394z" />
<glyph unicode="&#xe914;" glyph-name="metform_simple_captcha" d="M729.037-11.618c-11.028 0-21.662 6.302-26.782 16.542-7.089 14.572-1.182 32.295 13.785 39.385 149.268 72.468 242.215 220.948 242.215 387.151 0 237.095-192.591 430.080-429.686 430.080-122.092 0-238.67-52.382-320.196-143.36-11.422-13.391-30.326-18.905-48.049-12.209-17.723 6.302-29.145 22.449-29.145 41.354v143.754c0 16.148 13.391 29.538 29.538 29.538s29.538-13.391 29.538-29.538v-106.732c91.372 87.434 212.282 136.271 338.313 136.271 269.391 0 488.763-219.372 488.763-489.157 0-189.046-105.551-357.612-275.298-439.926-4.332-1.969-8.665-3.151-12.997-3.151zM164.262 757.563c0 0-0.394-0.394-0.788-0.788 0 0 0.394 0.394 0.788 0.788zM516.36-57.305c-16.148 0-29.538 13.391-29.538 29.538s13.391 29.538 29.538 29.538c20.086 0 39.778 1.182 59.077 3.938 16.542 2.363 31.114-9.058 33.083-25.206 2.363-16.148-9.058-31.114-25.206-33.083-22.055-3.151-44.505-4.332-67.348-4.332l0.394-0.394zM369.063-52.972c-3.938 0-7.877 0.788-11.422 2.363-18.511 7.877-36.628 16.935-53.957 26.782-14.178 8.271-18.905 25.994-11.028 40.172s26.388 18.905 40.172 11.028c15.36-8.665 31.508-16.542 47.655-23.631 14.965-6.302 22.054-23.631 15.753-38.597-4.725-11.422-15.753-18.117-27.174-18.117zM188.681 80.148c-8.271 0-16.542 3.545-22.449 10.24-13.391 15.754-25.994 32.295-37.809 49.625-9.058 13.391-5.514 31.902 7.877 40.96s31.902 5.514 40.96-7.877c10.24-15.36 21.662-29.932 33.477-44.111 10.634-12.603 9.058-31.114-3.151-41.748-5.514-4.726-12.209-7.089-19.298-7.089h0.394zM83.13 277.071c-12.997 0-24.812 8.271-28.357 21.268-5.514 18.905-9.846 38.203-13.391 57.502-2.757 16.148 7.877 31.508 24.025 34.265 15.754 2.757 31.508-7.877 34.265-24.025 3.151-17.329 7.089-34.658 11.815-51.594 4.332-15.754-4.726-31.902-20.086-36.628-2.757-0.788-5.514-1.182-8.271-1.182v0.394zM68.952 499.988c0 0-3.151 0-4.726 0-16.148 2.757-27.175 17.723-24.418 33.871 3.151 19.692 7.483 39.385 12.997 58.683 4.332 15.754 20.874 24.812 36.628 20.48s24.812-20.874 20.48-36.628c-4.726-16.936-8.665-34.265-11.422-51.988-2.363-14.572-14.966-24.812-29.145-24.812l-0.394 0.394z" />
<glyph unicode="&#xe915;" glyph-name="metform_signature_field" d="M68.865-57.277c-7.089 0-14.178 2.363-19.692 7.483-12.209 11.028-12.997 29.538-2.363 41.748 66.954 74.831 129.969 177.625 180.775 285.538-214.646 272.935-159.902 467.89-137.846 521.847 28.357 69.317 80.738 114.215 139.815 120.517 54.745 5.908 108.308-22.843 146.511-79.163 66.165-96.098 16.542-333.588-80.345-553.354 10.24-10.24 14.966-10.24 16.148-10.24 11.815 0 37.022 35.446 55.138 61.046 19.692 27.569 42.14 58.683 70.497 88.222 29.932 30.72 66.56 37.022 100.431 18.117 10.24-5.908 19.692-13.785 28.751-23.237 27.175 41.748 64.591 76.012 109.489 84.283 52.382 9.846 86.646-30.72 117.366-66.954 25.6-29.932 49.625-58.683 80.345-60.652 24.812-1.182 57.108 13.785 94.129 46.474 12.209 10.634 30.72 9.452 41.748-2.757 10.634-12.209 9.452-30.72-2.757-41.748-50.412-44.111-96.098-64.197-137.452-61.046-55.532 3.938-91.766 47.262-120.911 81.526-26.388 31.508-44.111 50.018-61.046 46.868-29.145-5.514-61.046-37.022-84.283-81.92 20.48-43.717 29.538-93.735 21.268-125.637-7.089-26.388-25.994-42.142-50.412-42.142s-52.382 16.148-56.714 60.652c-2.757 27.569 4.726 66.166 20.086 105.157-7.089 10.634-14.572 20.086-23.237 26.388-11.028 8.271-19.692 9.846-33.871-4.726-25.6-26.388-46.474-55.532-64.985-81.526-33.87-47.262-60.257-84.677-101.217-85.858-14.966-0.394-29.538 4.332-43.717 14.178-52.382-107.914-115.003-207.951-179.594-280.025-5.908-6.695-13.785-9.846-22.055-9.846v0.788zM243.733 861.566c-2.757 0-5.12 0-7.877-0.394-37.415-3.938-71.286-35.446-91.372-84.283-37.415-91.372-25.994-251.274 110.671-437.957 82.708 196.529 122.093 396.603 72.862 468.283-24.025 35.052-53.563 53.957-83.889 53.957l-0.394 0.394zM849.861-16.317h-459.617c-18.905 0-34.658 15.36-34.658 34.658s15.36 34.658 34.658 34.658h459.617c18.905 0 34.658-15.36 34.658-34.658s-15.36-34.658-34.658-34.658z" />
<glyph unicode="&#xe916;" glyph-name="metform_recaptcha" d="M938.929 475.175h-247.729c-10.24 0-19.692 6.302-23.631 15.754s-1.575 20.48 5.514 27.963l36.234 36.234c-28.751 69.317-93.342 117.366-168.172 125.243-12.997 1.182-22.843 12.209-22.843 25.6v188.652c0 7.089 2.757 13.785 7.877 18.511s11.815 7.089 18.905 7.089c137.058-7.877 260.332-77.194 339.102-189.834l36.234 36.234c7.483 7.483 18.117 9.452 27.963 5.514 9.452-3.938 15.754-13.391 15.754-23.631v-247.335c0-14.178-11.422-25.6-25.6-25.6l0.394-0.394zM753.034 526.375h160.295v160.295l-14.178-14.178c-5.514-5.514-13.391-7.877-20.48-7.483-7.483 0.788-14.572 4.726-18.905 11.028l-16.935 24.025c-64.197 92.554-162.658 152.418-273.329 166.203v-138.24c83.889-16.542 154.388-74.043 187.077-153.994l6.302-14.966c3.938-9.452 1.575-20.48-5.514-27.963l-4.726-4.726h0.394zM484.431-4.529c-145.329 0-281.6 71.286-365.095 190.622l-36.234-36.234c-7.483-7.483-18.511-9.452-27.963-5.514s-15.754 13.391-15.754 23.631v247.729c0 14.178 11.422 25.6 25.6 25.6h247.335c10.24 0 19.692-6.302 23.631-15.754s1.575-20.48-5.514-27.963l-36.234-36.234c31.902-76.8 106.338-126.425 189.834-126.425 55.138 0 106.338 21.268 144.935 59.865 9.846 9.846 26.388 9.846 36.234 0l132.726-132.726c4.726-4.726 7.483-11.422 7.483-18.117s-2.757-13.391-7.483-18.117c-82.708-82.708-197.317-129.969-314.289-129.969l0.788-0.394zM122.88 251.471c0 0 1.575 0 2.363 0 7.483-0.788 14.572-4.726 18.905-11.028l16.935-24.025c73.649-106.338 194.56-169.748 323.742-169.748 94.917 0 187.865 35.446 259.151 97.674l-96.886 96.886c-45.686-37.415-102.4-57.895-162.265-57.895-104.369 0-197.711 62.228-237.489 158.72l-6.302 14.966c-3.938 9.452-1.575 20.48 5.514 27.963l4.726 4.726h-160.295v-160.295l14.178 14.178c4.726 4.726 11.422 7.483 18.117 7.483l-0.394 0.394zM254.425 474.388h-188.258c-7.089 0-13.785 2.757-18.511 7.877s-7.483 12.209-7.089 18.905c7.877 137.452 77.194 260.726 189.834 339.495l-36.234 36.234c-7.483 7.483-9.452 18.511-5.514 27.963s13.391 15.754 23.631 15.754h247.335c14.178 0 25.6-11.422 25.6-25.6v-247.335c0-10.24-6.302-19.692-15.754-23.631s-20.48-1.969-27.963 5.514l-36.234 36.234c-69.317-29.145-117.366-93.342-125.243-168.172-1.182-12.997-12.209-22.843-25.6-22.843v-0.394zM94.129 525.588h138.24c16.542 83.889 74.043 154.388 153.994 187.471l14.966 6.302c9.452 3.938 20.48 1.575 27.963-5.514l4.726-4.726v159.902h-160.295l14.178-14.178c5.514-5.514 8.271-12.997 7.483-20.48s-4.726-14.572-11.028-18.905l-24.025-16.935c-92.554-64.197-152.418-162.658-166.203-273.329v0.394z" />
<glyph unicode="&#xe917;" glyph-name="metform_rating" d="M788.441-57.305c-23.631 0-54.351 7.483-92.554 30.326l-137.452 81.92c-15.36 9.058-44.898 9.058-61.046 0l-137.059-81.92c-78.375-46.868-124.455-29.145-144.935-14.178s-51.988 53.563-31.114 143.36l32.689 142.178c3.938 16.935-3.938 44.111-16.148 56.32l-113.822 115.003c-40.566 40.96-55.926 85.858-43.323 125.637s50.806 66.954 107.52 76.406l146.511 24.418c14.966 2.363 36.234 18.511 42.929 32.295l81.133 163.446c35.84 72.074 81.92 82.708 106.338 82.708s70.498-11.028 105.945-82.708l80.738-163.052c7.089-14.178 27.963-29.932 43.717-32.689l146.511-24.418c56.714-9.452 94.917-36.628 107.914-76.406 12.603-39.778-2.757-84.283-43.717-125.243l-113.822-115.003c-12.209-12.209-19.692-39.385-16.148-56.714l32.689-142.178c20.48-90.191-10.634-128.788-31.114-143.36-10.634-7.483-27.569-16.148-52.775-16.148h0.394zM528.502 121.108c21.662 0 43.323-5.12 60.258-15.36l137.452-81.92c42.142-24.812 68.923-25.206 79.951-17.329 11.422 8.271 19.298 34.265 8.271 82.708l-32.689 142.178c-8.271 37.022 5.514 84.677 31.902 111.458l113.822 115.003c24.025 24.025 34.658 48.049 29.145 65.772-5.514 17.329-27.963 30.72-61.44 36.234l-146.511 24.418c-34.265 5.908-71.68 33.477-87.040 64.985l-80.738 163.052c-15.36 31.114-35.052 50.018-53.169 50.018-17.723 0-37.809-18.511-53.563-50.018l-80.739-163.052c-14.966-31.114-51.988-58.683-86.252-64.591l-146.511-24.418c-33.083-5.514-55.532-18.905-61.046-36.234-5.514-17.723 4.726-41.748 29.145-65.772l113.822-115.003c26.388-26.388 39.778-74.437 31.902-111.065l-32.689-142.572c-11.028-48.049-2.757-74.043 8.271-82.314 14.178-10.24 44.898-3.938 79.951 16.935l137.453 81.92c17.329 10.24 39.385 15.36 60.652 15.36l0.394-0.394z" />
<glyph unicode="&#xe918;" glyph-name="metform_radio_button" d="M521.846-4.923c-244.185 0-443.077 198.892-443.077 443.077s198.892 443.077 443.077 443.077c244.185 0 443.077-198.892 443.077-443.077s-198.892-443.077-443.077-443.077zM521.846 822.154c-211.889 0-384-172.111-384-384s172.111-384 384-384c211.889 0 384 172.111 384 384s-172.111 384-384 384zM521.846 224.689c-117.76 0-213.464 95.705-213.464 213.465s95.704 213.464 213.464 213.464c117.76 0 213.465-95.704 213.465-213.464s-95.705-213.465-213.465-213.465zM521.846 592.147c-85.071 0-154.387-69.316-154.387-154.387s69.316-154.388 154.387-154.388c85.071 0 154.388 69.317 154.388 154.388s-69.317 154.387-154.388 154.387z" />
<glyph unicode="&#xe919;" glyph-name="metform_payment_method" d="M534.449 235.323l70.892 70.892-48.837 48.837-70.892-70.892 48.837-48.837zM664.812 365.686l101.218 101.218-48.837 48.837-101.218-101.218 48.837-48.837zM237.883 243.988l482.462 482.462-48.837 48.837-482.462-482.855 48.837-48.837v0.394zM465.92-24.615c-17.723 0-35.446 6.695-48.837 20.086l-357.612 357.612c-26.782 26.782-26.782 70.498 0 97.674l449.772 449.772c26.782 26.782 70.498 26.782 97.674 0l358.006-358.006c26.782-26.782 26.782-70.498 0-97.28l-449.772-449.772c-13.391-13.391-31.114-20.086-48.837-20.086h-0.394zM558.080 861.538c-2.363 0-5.12-0.788-7.089-2.757l-449.772-449.772c-3.938-3.938-3.938-10.24 0-13.785l358.006-358.006c3.938-3.938 10.24-3.938 13.785 0l449.772 449.772c3.938 3.938 3.938 10.24 0 13.785l-357.612 358.006c0 0-4.332 2.757-7.089 2.757zM879.852 17.92h-735.31v-59.077h735.31v59.077z" />
<glyph unicode="&#xe91a;" glyph-name="metform_opt_in_listing" d="M459.618 86.843h-298.929c-66.954 0-121.305 54.351-121.305 121.305v551.778c0 66.954 54.351 121.305 121.305 121.305h735.311c66.954 0 121.305-54.351 121.305-121.305v-206.769c0-16.148-13.391-29.538-29.538-29.538s-29.538 13.391-29.538 29.538v206.769c0 34.265-27.963 62.228-62.228 62.228h-735.311c-34.265 0-62.228-27.963-62.228-62.228v-551.385c0-34.265 27.963-62.228 62.228-62.228h298.535c16.148 0 29.538-13.391 29.538-29.538s-13.391-29.538-29.538-29.538l0.394-0.394zM528.542 492.111c-21.268 0-42.142 5.514-61.046 16.542l-229.218 133.907c-14.178 8.271-18.905 26.388-10.634 40.566s26.388 18.905 40.566 10.634l229.218-133.907c19.298-11.422 43.323-11.422 63.015 0l229.218 133.907c14.178 8.271 32.295 3.545 40.566-10.634s3.545-32.295-10.634-40.566l-229.218-133.907c-18.905-11.028-40.172-16.542-61.046-16.542h-0.788zM780.997-4.923c-3.545 0-7.089 0.788-10.24 1.969-134.302 49.625-218.585 141.785-225.674 246.942-4.726 68.529 26.782 131.151 80.345 159.508 64.197 33.871 121.698 14.966 155.569-8.271 33.871 23.237 91.372 42.535 155.569 8.271 53.169-28.357 84.677-90.585 80.345-159.508-7.089-104.763-91.372-197.317-225.674-246.942-3.151-1.182-6.695-1.969-10.24-1.969zM697.502 362.535c-12.997 0-27.963-3.151-44.111-11.815-32.689-17.329-51.988-57.895-48.837-103.188 5.12-78.375 70.892-149.662 176.837-191.409 105.945 42.142 171.717 113.034 176.837 191.409 3.151 45.292-16.148 85.858-48.837 103.188-59.865 31.508-102.006-9.846-106.338-14.966-5.514-5.908-11.815-9.452-21.662-9.452-8.271 0-16.148 3.545-21.662 9.452-3.151 3.545-26.388 26.388-61.834 26.388l-0.394 0.394z" />
<glyph unicode="&#xe91b;" glyph-name="metform_number" d="M567.926 684.308h-459.618c-16.148 0-29.538 13.391-29.538 29.538s13.391 29.538 29.538 29.538h459.618c16.148 0 29.538-13.391 29.538-29.538s-13.391-29.538-29.538-29.538zM567.926 408.615h-459.618c-16.148 0-29.538 13.391-29.538 29.538s13.391 29.538 29.538 29.538h459.618c16.148 0 29.538-13.391 29.538-29.538s-13.391-29.538-29.538-29.538zM567.926 132.923h-459.618c-16.148 0-29.538 13.391-29.538 29.538s13.391 29.538 29.538 29.538h459.618c16.148 0 29.538-13.391 29.538-29.538s-13.391-29.538-29.538-29.538zM935.385-4.923h-110.277c-16.148 0-31.902 0-44.505 12.603s-12.603 27.963-12.603 44.505v41.354c0 14.178 0 22.055 1.575 30.326 6.695 33.477 32.689 59.865 66.56 66.56 8.271 1.575 16.148 1.575 30.326 1.575 9.846 0 14.572 0 18.511 0.394 10.24 1.969 18.117 9.846 20.086 20.086 0.788 4.332 0.394 9.058 0.394 18.905s0 14.572-0.394 18.511c-1.969 10.24-9.846 18.117-20.086 20.086-4.332 0.788-9.058 0.394-18.905 0.394h-68.923c-16.148 0-29.538 13.391-29.538 29.538s13.391 29.538 29.538 29.538h68.923c14.178 0 22.055 0 30.326-1.575 33.477-6.695 59.865-32.689 66.56-66.56 1.575-8.271 1.575-16.148 1.575-30.326s0-22.055-1.575-30.326c-6.695-33.477-32.689-59.865-66.56-66.56-8.271-1.575-16.148-1.575-30.326-1.575-9.846 0-14.572 0-18.511-0.394-10.24-1.969-18.117-9.846-20.086-20.086-0.788-4.332-0.394-9.058-0.394-18.905v-39.385h108.308c16.148 0 29.538-13.391 29.538-29.538s-13.391-29.538-29.538-29.538v0.394zM935.385 546.462h-137.846c-16.148 0-29.538 13.391-29.538 29.538s13.391 29.538 29.538 29.538h39.385v216.615h-39.385c-16.148 0-29.538 13.391-29.538 29.538s13.391 29.538 29.538 29.538h55.138c24.025 0 43.323-19.298 43.323-43.323v-232.369h39.385c16.148 0 29.538-13.391 29.538-29.538s-13.391-29.538-29.538-29.538z" />
<glyph unicode="&#xe91c;" glyph-name="metform_multi_select" d="M572.652 100.234h-0.394c-8.271 0-16.148 3.545-21.268 9.846l-103.188 115.003c-11.028 12.209-9.846 30.72 2.363 41.748s30.72 9.846 41.748-2.363l82.314-91.372 288.295 298.929c11.422 11.815 29.932 12.209 41.748 0.788s12.209-29.932 0.788-41.748l-310.351-321.772c-5.514-5.908-13.391-9.058-21.268-9.058h-0.788zM790.843 743.385h-643.151c-16.148 0-29.538 13.391-29.538 29.538s13.391 29.538 29.538 29.538h643.151c16.148 0 29.538-13.391 29.538-29.538s-13.391-29.538-29.538-29.538zM652.997 513.772h-505.305c-16.148 0-29.538 13.391-29.538 29.538s13.391 29.538 29.538 29.538h505.305c16.148 0 29.538-13.39 29.538-29.538s-13.391-29.538-29.538-29.538zM331.618 283.766h-183.926c-16.148 0-29.538 13.391-29.538 29.538s13.391 29.538 29.538 29.538h183.926c16.148 0 29.538-13.391 29.538-29.538s-13.391-29.538-29.538-29.538z" />
<glyph unicode="&#xe91d;" glyph-name="metform_mobile_number" d="M731.766-57.305h-413.538c-66.954 0-121.305 54.351-121.305 121.305v735.311c0 66.954 54.351 121.305 121.305 121.305h413.538c66.954 0 121.305-54.351 121.305-121.305v-735.311c0-66.954-54.351-121.305-121.305-121.305zM318.228 861.538c-34.265 0-62.228-27.963-62.228-62.228v-735.311c0-34.265 27.963-62.228 62.228-62.228h413.538c34.265 0 62.228 27.963 62.228 62.228v735.311c0 34.265-27.963 62.228-62.228 62.228h-413.538zM541.932 90.388c-25.206 0-46.080 20.48-46.080 46.080s20.48 46.080 45.686 46.080h0.394c25.206 0 46.080-20.48 46.080-46.080s-20.48-46.080-46.080-46.080zM699.077 608.691c-25.206 0-46.080 20.48-46.080 46.080s20.48 46.080 45.686 46.080c25.206 0 46.080-20.48 46.080-46.080s-20.48-46.080-46.080-46.080h0.394zM541.538 608.691c-25.206 0-46.080 20.48-46.080 46.080s20.48 46.080 45.686 46.080c25.206 0 46.080-20.48 46.080-46.080s-20.48-46.080-46.080-46.080h0.394zM384.394 608.691c-25.206 0-46.080 20.48-46.080 46.080s20.48 46.080 45.686 46.080c25.206 0 46.080-20.48 46.080-46.080s-20.48-46.080-46.080-46.080h0.394zM699.077 451.151c-25.206 0-46.080 20.48-46.080 46.080s20.48 46.080 45.686 46.080c25.206 0 46.080-20.48 46.080-46.080s-20.48-46.080-46.080-46.080h0.394zM541.538 451.151c-25.206 0-46.080 20.48-46.080 46.080s20.48 46.080 45.686 46.080c25.206 0 46.080-20.48 46.080-46.080s-20.48-46.080-46.080-46.080h0.394zM384.394 451.151c-25.206 0-46.080 20.48-46.080 46.080s20.48 46.080 45.686 46.080c25.206 0 46.080-20.48 46.080-46.080s-20.48-46.080-46.080-46.080h0.394z" />
<glyph unicode="&#xe91e;" glyph-name="metform_map_location_picker" d="M643.151 307.397l-12.209 5.514c-7.089 3.151-178.018 83.102-178.018 229.218 0 107.519 85.465 194.953 190.228 194.953s190.228-87.434 190.228-194.953c0-146.117-170.929-225.674-178.018-228.825l-12.209-5.514v-0.394zM643.151 678.005c-72.468 0-131.151-61.046-131.151-135.876 0-89.009 96.492-149.662 131.151-168.96 34.658 18.905 131.151 79.951 131.151 168.96 0 74.83-59.077 135.876-131.151 135.876zM643.545 516.923c-16.148 0-29.538 13.391-29.538 29.538s12.997 29.538 29.538 29.538c16.148 0 29.538-13.391 29.538-29.538s-13.391-29.538-29.538-29.538zM528.542-57.305c-269.785 0-489.157 219.372-489.157 488.763s219.372 489.157 489.157 489.157c269.785 0 489.157-219.372 489.157-489.157s-219.372-489.157-489.157-489.157v0.394zM528.542 861.538c-237.095 0-430.080-192.985-430.080-430.080s192.985-430.080 430.080-430.080c237.095 0 430.080 192.985 430.080 430.080s-192.985 430.080-430.080 430.080zM666.388-11.618c-7.483 0-14.966 2.757-20.874 8.665l-254.819 254.818-163.052-163.052c-11.422-11.422-30.326-11.422-41.748 0s-11.422 30.326 0 41.748l163.052 163.052-254.818 254.818c-11.422 11.422-11.422 30.327 0 41.748s30.326 11.422 41.748 0l551.385-551.385c11.422-11.422 11.422-30.326 0-41.748-5.908-5.908-13.391-8.665-20.874-8.665z" />
<glyph unicode="&#xe91f;" glyph-name="metform_like_dislike" d="M167.385 395.91h-78.769c-27.175 0-49.231 23.631-49.231 52.382v183.928c0 29.145 22.055 52.382 49.231 52.382h78.769c16.148 0 29.538-13.391 29.538-29.538s-13.391-29.538-29.538-29.538h-68.923v-170.537h68.923c16.148 0 29.538-13.391 29.538-29.538s-13.391-29.538-29.538-29.538zM430.868 395.914h-263.483c-16.148 0-29.538 12.997-29.538 29.538v250.878c0 7.483 2.757 14.966 8.271 20.48l166.203 175.262c5.514 5.908 12.997 9.846 21.662 9.058 8.271 0 15.754-3.545 21.268-9.452 42.929-45.292 55.532-109.489 34.658-166.203h90.978c24.418 0 47.262-11.815 61.834-31.902 15.36-21.268 19.298-48.837 11.028-73.649l-50.018-150.448c-10.634-32.295-40.172-53.957-72.862-53.957v0.394zM196.923 454.991h233.945c7.483 0 14.178 5.514 16.935 13.391l50.018 150.448c2.363 7.089 1.182 14.572-3.151 20.48-1.969 2.757-6.695 7.483-13.785 7.483h-135.089c-9.846 0-19.298 5.12-24.418 12.997-5.514 8.271-6.302 18.511-2.757 27.963l14.572 34.265c11.422 27.175 10.24 58.289-2.363 83.889l-133.908-140.997v-209.918zM968.074 231.676h-78.769c-16.148 0-29.538 13.391-29.538 29.538s13.391 29.538 29.538 29.538h68.923v170.535h-68.923c-16.148 0-29.538 13.391-29.538 29.538s13.391 29.538 29.538 29.538h78.769c27.175 0 49.231-23.631 49.231-52.382v-183.926c0-29.145-22.055-52.382-49.231-52.382zM723.102 34.753c-7.877 0-15.754 3.151-21.268 9.058-43.323 45.686-55.926 109.489-35.052 166.597h-90.585c-24.418 0-47.262 11.815-61.834 31.902-15.36 21.268-19.298 48.837-11.028 73.649l50.018 150.449c10.634 32.295 39.778 53.957 72.862 53.957h263.483c16.148 0 29.538-13.391 29.538-29.538v-250.88c0-7.483-2.757-14.966-8.271-20.48l-166.597-175.655c-5.514-5.908-12.997-11.028-21.268-9.058zM626.215 461.288c-7.483 0-14.178-5.514-16.935-13.391l-50.018-150.449c-2.363-7.089-1.182-14.572 3.151-20.48 1.969-2.757 6.695-7.483 13.785-7.483h135.089c9.846 0 19.298-5.12 24.418-12.997 5.514-8.271 6.302-18.511 2.757-27.963l-14.572-34.265c-11.422-27.175-10.24-58.289 2.363-83.889l133.908 141.391v209.526h-233.945z" />
<glyph unicode="&#xe920;" glyph-name="metform_last_name" d="M896 47.458h-735.311c-66.954 0-121.305 54.351-121.305 121.305v551.778c0 66.954 54.351 121.305 121.305 121.305h735.311c66.954 0 121.305-54.351 121.305-121.305v-551.385c0-66.954-54.351-121.305-121.305-121.305v-0.394zM160.689 782.769c-34.265 0-62.228-27.963-62.228-62.228v-551.385c0-34.265 27.963-62.228 62.228-62.228h735.311c34.265 0 62.228 27.963 62.228 62.228v551.385c0 34.265-27.963 62.228-62.228 62.228h-735.311zM528.542 231.385c-11.028 0-21.662 6.302-26.782 16.935-25.994 55.138-85.465 74.831-132.332 74.831-61.046 0-114.609-29.538-135.877-74.831-7.089-14.572-24.418-21.268-39.385-14.178s-21.268 24.418-14.178 39.385c31.114 66.166 105.157 109.095 189.44 109.095 83.101 0 154.387-41.748 185.895-109.095 7.089-14.966 0.394-32.295-14.178-39.385-3.938-1.969-8.271-2.757-12.603-2.757zM367.853 415.311c-66.954 0-121.305 54.351-121.305 121.305s54.351 121.305 121.305 121.305c66.953 0 121.304-54.351 121.304-121.305s-54.351-121.305-121.304-121.305zM367.853 599.238c-34.265 0-62.228-27.963-62.228-62.228s27.963-62.228 62.228-62.228c34.264 0 62.227 27.963 62.227 62.228s-27.963 62.228-62.227 62.228zM849.92 323.151h-183.926c-16.148 0-29.538 13.391-29.538 29.538s13.391 29.538 29.538 29.538h183.926c16.148 0 29.538-13.391 29.538-29.538s-13.391-29.538-29.538-29.538z" />
<glyph unicode="&#xe921;" glyph-name="metform_image_selector" d="M699.75-59.408c-25.206 0-52.775 0.394-81.92 1.182-68.135 1.182-153.206 1.182-220.554 0-145.328-2.757-241.033-4.332-301.292 55.926s-58.289 155.963-55.532 300.898c0.788 33.477 1.182 70.498 1.182 110.277s-0.788 76.406-1.182 110.277c-2.757 148.873-4.726 247.335 55.926 307.593 57.502 57.895 145.723 54.745 278.843 50.806 39.778-1.182 83.495-2.757 132.332-2.757 16.148 0 29.538-13.391 29.538-29.538s-13.391-29.538-29.538-29.538c-49.625 0-94.129 1.575-134.301 2.757-117.76 3.545-195.742 6.302-235.52-33.477-42.535-42.535-40.96-131.151-38.597-264.664 0.788-34.265 1.182-71.286 1.182-111.458s-0.788-77.194-1.182-111.458c-2.363-129.969-3.938-215.828 38.597-258.363s128.394-40.96 258.362-38.597c67.742 1.182 153.994 1.182 222.523 0 133.908-2.363 222.129-3.938 264.665 38.597 39.778 39.778 37.022 117.366 33.477 235.52-1.182 40.172-2.757 84.677-2.757 134.302 0 61.834 0 115.003-1.575 159.507-0.788 16.148 12.209 29.932 28.357 30.72 16.148 0.394 29.932-12.209 30.72-28.357 1.969-46.079 1.969-99.642 1.969-161.87 0-48.837 1.575-92.948 2.757-132.332 4.332-133.12 7.089-221.342-50.806-278.843-48.443-48.443-121.698-57.108-225.674-57.108zM208.625-23.572l-45.292 37.809c13.391 16.148 26.782 32.295 40.566 48.837 189.046 228.825 424.566 513.97 756.184 299.717l-31.902-49.625c-287.508 185.502-486.4-55.138-678.597-287.902-13.785-16.542-27.175-33.083-40.566-49.231l-0.394 0.394zM714.323 586.103c0 0-1.182 0-1.575 0-10.634 0.394-20.086 6.695-24.812 16.148-35.446 70.498-66.954 75.618-67.348 75.618-16.148 0-28.751 12.997-28.751 29.538s14.178 29.538 30.326 29.538c9.058 0 50.018-3.545 93.735-66.166 49.625 70.105 159.508 211.102 264.271 248.123 15.36 5.514 32.295-2.757 37.809-18.117s-2.757-32.295-18.117-37.809c-118.548-42.142-259.151-261.514-260.726-263.877-5.514-8.665-14.966-13.785-24.812-13.785v0.788z" />
<glyph unicode="&#xe922;" glyph-name="metform_gdpr_consent" d="M482.462 356.234h-183.927c-16.148 0-29.538 13.391-29.538 29.538s13.391 29.538 29.538 29.538h183.927c16.148 0 29.538-13.391 29.538-29.538s-13.391-29.538-29.538-29.538zM666.388 172.308h-367.853c-16.148 0-29.538 13.391-29.538 29.538s13.391 29.538 29.538 29.538h367.459c16.148 0 29.538-13.391 29.538-29.538s-13.391-29.538-29.538-29.538h0.394zM804.234-57.305h-643.545c-66.954 0-121.305 54.351-121.305 121.305v735.311c0 66.954 54.351 121.305 121.305 121.305h206.769c16.148 0 29.538-13.391 29.538-29.538s-13.391-29.538-29.538-29.538h-206.769c-34.265 0-62.228-27.963-62.228-62.228v-735.311c0-34.265 27.963-62.228 62.228-62.228h643.151c34.265 0 62.228 27.963 62.228 62.228v275.692c0 16.148 13.391 29.538 29.538 29.538s29.538-13.391 29.538-29.538v-275.692c0-66.954-54.351-121.305-121.305-121.305h0.394zM712.074 401.92c-142.966 0-259.151 116.185-259.151 259.151s116.185 259.545 259.151 259.545c142.966 0 259.151-116.185 259.151-259.151s-116.185-259.151-259.151-259.151v-0.394zM712.074 861.538c-110.277 0-200.074-89.797-200.074-200.074s89.797-200.074 200.074-200.074c110.277 0 200.074 89.797 200.074 200.074s-89.797 200.074-200.074 200.074zM689.231 563.003c-7.877 0-15.36 3.151-20.874 8.664l-68.923 68.923c-11.422 11.422-11.422 30.326 0 41.748s30.326 11.422 41.748 0l46.080-46.080 94.129 113.034c10.634 12.603 29.145 14.178 41.748 3.938 12.603-10.634 14.178-29.145 3.938-41.748l-115.003-137.846c-5.12-6.302-12.997-10.24-21.268-10.633-0.394 0-0.788 0-1.182 0h-0.394z" />
<glyph unicode="&#xe923;" glyph-name="metform_first_name" d="M896 47.458h-735.311c-66.954 0-121.305 54.351-121.305 121.305v551.778c0 66.954 54.351 121.305 121.305 121.305h735.311c66.954 0 121.305-54.351 121.305-121.305v-551.385c0-66.954-54.351-121.305-121.305-121.305v-0.394zM160.689 782.769c-34.265 0-62.228-27.963-62.228-62.228v-551.385c0-34.265 27.963-62.228 62.228-62.228h735.311c34.265 0 62.228 27.963 62.228 62.228v551.385c0 34.265-27.963 62.228-62.228 62.228h-735.311zM528.542 231.385c-11.028 0-21.662 6.302-26.782 16.935-25.994 55.138-85.465 74.831-132.332 74.831-61.046 0-114.609-29.538-135.877-74.831-7.089-14.572-24.418-21.268-39.385-14.178s-21.268 24.418-14.178 39.385c31.114 66.166 105.157 109.095 189.44 109.095 83.101 0 154.387-41.748 185.895-109.095 7.089-14.966 0.394-32.295-14.178-39.385-3.938-1.969-8.271-2.757-12.603-2.757zM367.853 415.311c-66.954 0-121.305 54.351-121.305 121.305s54.351 121.305 121.305 121.305c66.953 0 121.304-54.351 121.304-121.305s-54.351-121.305-121.304-121.305zM367.853 599.238c-34.265 0-62.228-27.963-62.228-62.228s27.963-62.228 62.228-62.228c34.264 0 62.227 27.963 62.227 62.228s-27.963 62.228-62.227 62.228zM849.92 507.077h-183.926c-16.148 0-29.538 13.391-29.538 29.538s13.391 29.538 29.538 29.538h183.926c16.148 0 29.538-13.391 29.538-29.538s-13.391-29.538-29.538-29.538z" />
<glyph unicode="&#xe924;" glyph-name="metform_file_upload" d="M561.231-57.305h-321.772c-66.954 0-121.305 54.351-121.305 121.305v367.458c0 16.148 13.391 29.538 29.538 29.538s29.538-13.391 29.538-29.538v-367.458c0-34.265 27.963-62.228 62.228-62.228h309.169l304.443 303.655v493.883c0 34.265-27.963 62.228-62.228 62.228h-229.612c-16.148 0-29.538 13.391-29.538 29.538s13.391 29.538 29.538 29.538h229.612c66.954 0 121.305-54.351 121.305-121.305v-506.092c0-7.877-3.151-15.36-8.665-20.874l-321.772-320.985c-5.514-5.514-12.997-8.665-20.874-8.665h0.394zM590.769-27.766h-59.077v229.612c0 66.954 54.351 121.305 121.305 121.305h229.612v-59.077h-229.612c-34.265 0-62.228-27.963-62.228-62.228v-229.612zM285.538 494.080c-16.148 0-29.538 13.391-29.538 29.538v296.172l-87.434-87.434c-11.422-11.422-30.326-11.422-41.748 0s-11.422 30.326 0 41.748l137.846 137.846c5.514 5.514 12.997 8.665 20.874 8.665s15.36-3.151 20.874-8.665l137.846-137.846c11.422-11.422 11.422-30.326 0-41.748s-30.326-11.422-41.748 0l-87.434 87.434v-296.172c0-16.148-13.391-29.538-29.538-29.538z" />
<glyph unicode="&#xe925;" glyph-name="metform_email" d="M896 47.458h-735.311c-66.954 0-121.305 54.351-121.305 121.305v551.778c0 66.954 54.351 121.305 121.305 121.305h735.311c66.954 0 121.305-54.351 121.305-121.305v-551.385c0-66.954-54.351-121.305-121.305-121.305v-0.394zM160.689 782.769c-34.265 0-62.228-27.963-62.228-62.228v-551.385c0-34.265 27.963-62.228 62.228-62.228h735.311c34.265 0 62.228 27.963 62.228 62.228v551.385c0 34.265-27.963 62.228-62.228 62.228h-735.311zM528.542 425.945c-18.511 0-37.415 4.332-54.351 12.603l-418.657 209.525 26.388 52.775 418.263-209.132c17.329-8.665 38.203-8.665 55.926 0l418.265 209.132 26.388-52.775-418.265-209.132c-16.935-8.665-35.446-12.603-54.351-12.603l0.394-0.394z" />
<glyph unicode="&#xe926;" glyph-name="metform_dropdown" d="M528.542-57.305c-269.785 0-489.157 219.372-489.157 488.763s219.372 489.157 489.157 489.157c269.785 0 489.157-219.372 489.157-489.157s-219.372-489.157-489.157-489.157v0.394zM528.542 861.538c-237.095 0-430.080-192.985-430.080-430.080s192.985-430.080 430.080-430.080c237.095 0 430.080 192.985 430.080 430.080s-192.985 430.080-430.080 430.080zM528.542 310.154c-7.089 0-13.785 2.363-19.298 7.483l-183.926 160.689c-12.209 10.634-13.391 29.538-2.757 41.748s29.538 13.391 41.748 2.757l164.234-143.754 164.234 143.754c12.209 10.634 31.114 9.452 41.748-2.757s9.452-31.114-2.757-41.748l-183.926-160.689c-5.514-4.726-12.603-7.483-19.298-7.483z" />
<glyph unicode="&#xe927;" glyph-name="metform_credit_card_field-1" d="M896 47.458h-735.311c-66.954 0-121.305 54.351-121.305 121.305v551.778c0 66.954 54.351 121.305 121.305 121.305h735.311c66.954 0 121.305-54.351 121.305-121.305v-551.385c0-66.954-54.351-121.305-121.305-121.305v-0.394zM160.689 782.769c-34.265 0-62.228-27.963-62.228-62.228v-551.385c0-34.265 27.963-62.228 62.228-62.228h735.311c34.265 0 62.228 27.963 62.228 62.228v551.385c0 34.265-27.963 62.228-62.228 62.228h-735.311zM804.234 231.385h-160.689c-16.148 0-29.538 13.391-29.538 29.538s13.391 29.538 29.538 29.538h160.689c16.148 0 29.538-13.391 29.538-29.538s-13.391-29.538-29.538-29.538zM505.698 231.385h-68.923c-16.148 0-29.538 13.391-29.538 29.538s13.391 29.538 29.538 29.538h68.923c16.148 0 29.538-13.391 29.538-29.538s-13.391-29.538-29.538-29.538zM1017.305 612.235h-977.92v-59.078h977.92v59.078z" />
<glyph unicode="&#xe928;" glyph-name="metform_color_picker" d="M549.415-57.698c-3.938 0-7.483 0-11.028 0h-9.846c-269.785 0-489.157 219.372-489.157 489.157s219.372 489.157 489.157 489.157c269.785 0 489.157-219.372 489.157-489.157 0-83.889-16.542-172.505-140.209-190.228-55.532-7.877-103.975-7.877-142.966-7.877-82.708 0-112.246-2.363-133.514-44.898-16.542-33.477-7.089-50.412 14.966-83.102 14.966-22.449 33.871-50.412 33.871-87.434 0-21.662-6.695-39.385-20.086-52.382-21.268-21.268-52.775-23.237-80.738-23.237h0.394zM528.542 861.538c-237.095 0-430.080-192.985-430.080-430.080s192.985-430.080 430.080-430.080h10.24c16.148 0 42.535-0.394 49.625 6.302 1.969 1.969 2.363 7.089 2.363 10.24 0 18.905-11.028 35.446-24.025 54.351-21.662 32.295-51.594 76.8-18.905 142.572 38.597 77.588 107.126 77.588 186.289 77.588 38.991 0 83.102 0 134.695 7.483 68.529 9.846 89.403 40.566 89.403 131.545 0 237.095-192.985 430.080-430.080 430.080h0.394zM298.929 254.228c-17.723 0-34.265 12.209-38.597 30.326-5.12 21.268 7.877 42.535 29.145 47.262 21.268 5.12 42.535-8.271 47.262-29.145 5.12-21.268-8.271-42.535-29.145-47.262-3.151-0.788-5.908-1.182-9.058-1.182h0.394zM413.538 494.080c-54.351 0-98.462 44.111-98.462 98.463s44.111 98.462 98.462 98.462 98.462-44.111 98.462-98.462c0-54.352-44.111-98.463-98.462-98.463zM413.538 631.928c-21.662 0-39.385-17.723-39.385-39.385s17.723-39.386 39.385-39.386c21.662 0 39.385 17.725 39.385 39.386s-17.723 39.385-39.385 39.385zM735.311 448c-54.351 0-98.462 44.111-98.462 98.462s44.111 98.462 98.462 98.462c54.351 0 98.462-44.111 98.462-98.462s-44.111-98.462-98.462-98.462zM735.311 585.846c-21.662 0-39.385-17.723-39.385-39.385s17.723-39.385 39.385-39.385c21.662 0 39.385 17.723 39.385 39.385s-17.723 39.385-39.385 39.385z" />
<glyph unicode="&#xe929;" glyph-name="metform_checkbox" d="M849.92-11.618h-689.231c-66.954 0-121.305 54.351-121.305 121.305v689.625c0 66.954 54.351 121.305 121.305 121.305h689.231c66.954 0 121.305-54.351 121.305-121.305v-689.231c0-66.954-54.351-121.305-121.305-121.305v-0.394zM160.689 861.538c-34.265 0-62.228-27.963-62.228-62.228v-689.231c0-34.265 27.963-62.228 62.228-62.228h689.231c34.265 0 62.228 27.963 62.228 62.228v689.231c0 34.265-27.963 62.228-62.228 62.228h-689.231zM459.618 287.311c-7.877 0-15.36 3.151-20.874 8.665l-115.003 115.003c-11.422 11.422-11.422 30.326 0 41.748s30.326 11.422 41.748 0l92.16-92.16 209.132 250.88c10.634 12.603 29.145 14.178 41.748 3.938 12.603-10.634 14.178-29.145 3.938-41.748l-229.612-275.692c-5.12-6.302-12.997-10.24-21.268-10.634-0.394 0-0.788 0-1.182 0h-0.788z" />
<glyph unicode="&#xe92a;" glyph-name="metform_calculation_field" d="M849.92-11.618h-689.231c-66.954 0-121.305 54.351-121.305 121.305v689.625c0 66.954 54.351 121.305 121.305 121.305h689.231c66.954 0 121.305-54.351 121.305-121.305v-689.231c0-66.954-54.351-121.305-121.305-121.305v-0.394zM160.689 861.538c-34.265 0-62.228-27.963-62.228-62.228v-689.231c0-34.265 27.963-62.228 62.228-62.228h689.231c34.265 0 62.228 27.963 62.228 62.228v689.231c0 34.265-27.963 62.228-62.228 62.228h-689.231zM390.695 241.231c-12.209 0-22.843 7.483-27.569 18.511l-78.375 196.135-38.597-25.6c-13.785-9.058-31.902-5.514-40.96 8.271-9.058 13.391-5.514 31.902 8.271 40.96l68.923 46.080c7.483 5.12 16.542 6.302 25.206 3.545s15.36-9.058 18.511-17.329l61.046-152.812 90.191 288.294c3.938 12.209 15.36 20.874 28.357 20.874h275.692c16.148 0 29.538-13.391 29.538-29.538s-13.391-29.538-29.538-29.538h-254.031l-108.308-346.977c-3.545-11.815-14.572-20.086-27.175-20.874 0 0-0.788 0-1.182 0zM735.311 287.311c-7.483 0-14.966 2.757-20.874 8.665l-48.049 48.049-48.049-48.049c-11.422-11.422-30.326-11.422-41.748 0s-11.422 30.326 0 41.748l48.049 48.049-48.049 48.049c-11.422 11.422-11.422 30.326 0 41.748s30.326 11.422 41.748 0l48.049-48.049 48.049 48.049c11.422 11.422 30.326 11.422 41.748 0s11.422-30.326 0-41.748l-48.049-48.049 48.049-48.049c11.422-11.422 11.422-30.326 0-41.748-5.908-5.908-13.391-8.665-20.874-8.665z" />
</font>
</defs>
</svg>
